Mitron 2018 Hindi 720p HDRip x264 5 1 AA Torrent Free Download

Seeders : 408   &   Leechers : 509      09-11-2018 (1 month)
Mitron 2018 Hindi 720p HDRip x264 5 1 AA Torrent Download
Added: ago by SkTara ***** in Movies   1.3 GB   Hits : 37
Info Hash: E914E6958DDEC82E2125BD558837F902073393E3 Download
Mitron 2018 Hindi 720p HDRip x264 5 1 AA Torrent Download

Anonymous and Direct Download movies , software , shows...

Fast Safe Anonymous
movies, software, shows...
Mitron
Comedy   .   119 min   7.1/10
Director : Nitin Kakkar  
Tags: Mitron  2018  Hindi  720p  HDRip  x264  

Released:
14 Sep 2018
Jai "Jackky Bhagnani", born and brought up with middle-class values, has a 'take it easy' approach to life. Since he doesn't believe in a herd mentality, he and his two best friends, Raunak...

Torrent Description




Mitron 2018 Hindi 720p HDRip x264 5.1 AAC ESub { TaRa }.mkv


===================================================================
General
Complete name : Mitron 2018 Hindi 720p HDRip x264 5.1 AAC ESub { TaRa }.mkv
Format : Matroska
Format version : Version 4
File size : 1.27 GiB
Duration : 1 h 56 min
Overall bit rate : 1 559 kb/s
===================================================================
Video
ID : 1
Format : AVC
Format/Info : Advanced Video Codec
Format profile : [email protected]
Format settings : CABAC / 4 Ref Frames
Format settings, CABAC : Yes
Format settings, ReFrames : 4 frames
Codec ID : V_MPEG4/ISO/AVC
Duration : 1 h 56 min
Bit rate : 1 428 kb/s
Width : 1 280 pixels
Height : 544 pixels
Display aspect ratio : 2.35:1
Frame rate mode : Constant
Frame rate : 24.000 FPS
Color space : YUV
Chroma subsampling : 4:2:0
Bit depth : 8 bits
Scan type : Progressive
Bits/(Pixel*Frame) : 0.085
Stream size : 1.16 GiB (92%)
Title : .....::::: TaRa :::::.....
Language : Hindi
Default : Yes
Forced : No
===================================================================
Audio
ID : 2
Format : AAC LC
Format/Info : Advanced Audio Codec Low Complexity
Codec ID : A_AAC-2
Duration : 1 h 56 min
Bit rate : 128 kb/s
Channel(s) : 6 channels
Channel layout : C L R Ls Rs LFE
Sampling rate : 44.1 kHz
Frame rate : 43.066 FPS (1024 SPF)
Compression mode : Lossy
Stream size : 107 MiB (8%)
Title : .....::::: TaRa :::::.....
Language : Hindi
Default : Yes
Forced : No
===================================================================
Text
ID : 3
Format : UTF-8
Codec ID : S_TEXT/UTF8
Codec ID/Info : UTF-8 Plain Text
Duration : 1 h 55 min
Bit rate : 72 b/s
Count of elements : 2102
Stream size : 61.3 KiB (0%)
Title : .....::::: TaRa :::::.....
Language : Hindi
Default : Yes
Forced : No
===================================================================




































Sharing Widget


No Comments For This Torrent . Be The First to Comment

You must Login to Comment . Click Here to Login

Menu 1

Some content in menu 1.

Mitron 2018 Hindi 720p HDRip x264 5 1 AAC ESub { TaRa } mkv (Size: 1.3 GB)
  Mitron 2018 Hindi 720p HDRip x264 5 1 AAC ESub { TaRa } mkv 1.3 GB
tracker name
udp://tracker.leechers-paradise.org:6969/announce
udp://zer0day.ch:1337/announce
udp://open.demonii.com:1337/announce
udp://tracker.coppersurfer.tk:6969/announce
udp://exodus.desync.com:6969/announce
µTorrent compatible trackers list

Relative Torrents

Torrent Name Size Age SEED LEECH
House Hunters S173E06 Lighting Up the Hoidays WEB x264-CAFFEiNE [eztv]
Posted by    EZTVag   in   TV
176.8 MB 5 minutes 828 733
House Hunters S156E13 Moving On to Madisn WEB x264-CAFFEiNE [eztv]
Posted by    EZTVag   in   TV
176.8 MB 10 minutes 838 130
Real Country S01E08 WEB x264-TBS
Posted by    Trige   in   TV
891.9 MB 10 minutes 751 939
House Hunters S173E02 Bedrooms for Chrismas WEB x264-CAFFEiNE [eztv]
Posted by    EZTVag   in   TV
176.6 MB 10 minutes 528 321
WWE Mixed Match Challenge S02E13 720p WE h264-HEEL [TJET]
Posted by    EZZT   in   TV
1.0 GB 10 minutes 762 941